KeyFC欢迎致辞,点击播放
资源、介绍、历史、Q群等新人必读
KeyFC 社区总索引
如果你找到这个笔记本,请把它邮寄给我们的回忆
KeyFC 漂流瓶传递活动 Since 2011
 

[Kanon] 求好心人发KANON的DTS—HD音轨

[ 4417 查看 / 6 回复 ]

自己下载的一不小心看错了,只有DTS CORE,没有HD的部分,CLANNAD&AS我都收的是DTS-HD MA,虽然有KANON的BDMV离线完了,但是一集4GB多的REMUXMKV,让我压力很大。希望有原盘好心人能够把DTS-HD音轨提出来,之后发到115上,一集大约400MB不到。

工具用tsMuxeR 1.10.6 DEMUX,不要选择downconvert DTS-HD to DTS。


PS:我记得panagion,Celestin,好像有原盘,不知道还有没有人有。


这是KANON的文件


General
Unique ID                        : 210065056158567759054472494205725092491 (0x9E090EE5B46E3CD08D530E552D24AA8B)
Complete name                    : D:\英文配音动漫\KANON\[flygroup]Kanon 01(1920x1080 h264 flac AC3).mkv
Format                          : Matroska
File size                        : 1.40 GiB
Duration                        : 24mn 17s
Overall bit rate                : 8 268 Kbps
Movie name                      : [Doki] Kanon - 01 (1920x1080 h264 BD FLAC).mkv
Encoded date                    : UTC 2011-04-03 01:39:05
Writing application              : mkvmerge v4.6.0 ('Still Crazy After All These Years') 编译于 Mar 10 2011 02:50:32
Writing library                  : libebml v1.2.0 + libmatroska v1.1.0
Cover                            : Yes / Yes / Yes / Yes / Yes
Video
ID                              : 6
Format                          : AVC
Format/Info                      : Advanced Video Codec
Format profile                  : High@L4.1
Format settings, CABAC          : Yes
Format settings, ReFrames        : 4 frames
Muxing mode                      : Header stripping
Codec ID                        : V_MPEG4/ISO/AVC
Duration                        : 24mn 17s
Nominal bit rate                : 5 000 Kbps
Width                            : 1 920 pixels
Height                          : 1 080 pixels
Display aspect ratio            : 16:9
Frame rate                      : 23.976 fps
Color space                      : YUV
Chroma subsampling              : 4:2:0
Bit depth                        : 8 bits
Scan type                        : Progressive
Bits/(Pixel*Frame)              : 0.101
Title                            : BDrip by Yousei
Writing library                  : x264 core 84 r1416 fcf70c2
Encoding settings                : cabac=1 / ref=4 / deblock=1:-2:-2 / analyse=0x3:0x133 / me=umh / subme=9 / psy=1 / psy_rd=0.8:0.0 / mixed_ref=1 / me_range=24 / chroma_me=1 / trellis=2 / 8x8dct=1 / cqm=0 / deadzone=21,11 / fast_pskip=1 / chroma_qp_offset=-2 / threads=12 / sliced_threads=0 / nr=0 / decimate=0 / mbaff=0 / constrained_intra=0 / bframes=8 / b_pyramid=2 / b_adapt=2 / b_bias=0 / direct=3 / wpredb=1 / wpredp=2 / keyint=250 / keyint_min=25 / scenecut=40 / intra_refresh=0 / rc=2pass / mbtree=0 / bitrate=5000 / ratetol=1.0 / qcomp=0.60 / qpmin=9 / qpmax=28 / qpstep=4 / cplxblur=20.0 / qblur=0.5 / ip_ratio=1.40 / pb_ratio=1.30 / aq=1:0.80
Audio #1
ID                              : 4
Format                          : AC-3
Format/Info                      : Audio Coding 3
Mode extension                  : CM (complete main)
Muxing mode                      : Header stripping
Codec ID                        : A_AC3
Duration                        : 24mn 17s
Bit rate mode                    : Constant
Bit rate                        : 160 Kbps
Channel(s)                      : 2 channels
Channel positions                : Front: L R
Sampling rate                    : 48.0 KHz
Bit depth                        : 16 bits
Compression mode                : Lossy
Stream size                      : 27.8 MiB (2%)
Language                        : English
Audio #2
ID                              : 7
Format                          : FLAC
Format/Info                      : Free Lossless Audio Codec
Codec ID                        : A_FLAC
Duration                        : 24mn 17s
Bit rate mode                    : Variable
Channel(s)                      : 6 channels
Sampling rate                    : 48.0 KHz
Bit depth                        : 16 bits
Title                            : LPCM -> flac
Writing library                  : libFLAC 1.2.1 (UTC 2007-09-17)
Language                        : Japanese
Audio #3
ID                              : 8
Format                          : DTS
Format/Info                      : Digital Theater Systems
Muxing mode                      : Header stripping
Codec ID                        : A_DTS
Duration                        : 24mn 17s
Bit rate mode                    : Constant
Bit rate                        : 1 510 Kbps
Channel(s)                      : 6 channels
Channel positions                : Front: L C R, Side: L R, LFE
Sampling rate                    : 48.0 KHz
Bit depth                        : 16 bits
Compression mode                : Lossy
Delay relative to video          : 11ms
Stream size                      : 262 MiB (18%)
Language                        : Japanese
Text #1
ID                              : 1
Format                          : ASS
Codec ID                        : S_TEXT/ASS
Codec ID/Info                    : Advanced Sub Station Alpha
Compression mode                : Lossless
Title                            : ASS [SS-Eclipse]
Language                        : English
Text #2
ID                              : 2
Format                          : UTF-8
Codec ID                        : S_TEXT/UTF8
Codec ID/Info                    : UTF-8 Plain Text
Language                        : English
Text #3
ID                              : 3
Format                          : VobSub
Muxing mode                      : zlib
Codec ID                        : S_VOBSUB
Codec ID/Info                    : The same subtitle format used on DVDs
Language                        : Japanese
Text #4
ID                              : 5
Format                          : ASS
Codec ID                        : S_TEXT/ASS
Codec ID/Info                    : Advanced Sub Station Alpha
Compression mode                : Lossless
Language                        : Chinese
Menu
00:00:00.000                    : en:Prologue
00:01:40.517                    : en:OP
00:03:10.232                    : en:Part A
00:11:26.728                    : en:Part B
00:22:11.373                    : en:ED
00:23:41.422                    : en:Preview




DTS码率只有 1510KBPS的CORE

本帖得分:

, panagion(好人卡:2张)
本主题由 千夏轮回的终点 fch1993 于 2011/5/1 10:48:02 执行 结帖 操作
分享 转发
ANK-RAWS目需要购入BD数量巨大,如果以下BD有你打算做BDRIP或者做CSM的,希望能给予一点捐助,毕竟我们能够用自购补完的BD也是极为有限的。
(以下会随放流情况随时更改)
http://keyfc.net/bbs/showtopic-51138.aspx
http://u2.dmhy.org/forums.php?action=viewtopic&forumid=19&topicid=6209
TOP

这个是CLANNAD的文件,DTS有2047KBPS。

General
Unique ID                        : 192608087838207336521452629786545867696 (0x90E6F7E86623B45FB3B7D198C557CBB0)
Complete name                    : D:\英文配音动漫\CLANNAD&After story\[flygroup]Clannad 01(1092x1080 h264 AC3 FLAC).mkv
Format                          : Matroska
File size                        : 1.85 GiB
Duration                        : 24mn 11s
Overall bit rate                : 11.0 Mbps
Movie name                      : [Doki] Clannad - 01 (1920x1080 h264 BD FLAC).mkv
Encoded date                    : UTC 2011-04-17 01:28:05
Writing application              : mkvmerge v4.6.0 ('Still Crazy After All These Years') 编译于 Mar 10 2011 02:50:32
Writing library                  : libebml v1.2.0 + libmatroska v1.1.0
Cover                            : Yes / Yes / Yes / Yes / Yes / Yes / Yes

Video
ID                              : 7
Format                          : AVC
Format/Info                      : Advanced Video Codec
Format profile                  : High@L4.1
Format settings, CABAC          : Yes
Format settings, ReFrames        : 4 frames
Muxing mode                      : Header stripping
Codec ID                        : V_MPEG4/ISO/AVC
Duration                        : 24mn 11s
Nominal bit rate                : 6 850 Kbps
Width                            : 1 920 pixels
Height                          : 1 080 pixels
Display aspect ratio            : 16:9
Frame rate                      : 23.976 fps
Color space                      : YUV
Chroma subsampling              : 4:2:0
Bit depth                        : 8 bits
Scan type                        : Progressive
Bits/(Pixel*Frame)              : 0.138
Writing library                  : x264 core 94 r1570 d9db8b3
Encoding settings                : cabac=1 / ref=4 / deblock=1:-2:-2 / analyse=0x3:0x133 / me=umh / subme=9 / psy=1 / psy_rd=0.60:0.00 / mixed_ref=1 / me_range=24 / chroma_me=1 / trellis=2 / 8x8dct=1 / cqm=0 / deadzone=21,11 / fast_pskip=1 / chroma_qp_offset=-2 / threads=6 / sliced_threads=0 / nr=0 / decimate=0 / interlaced=0 / constrained_intra=0 / bframes=7 / b_pyramid=2 / b_adapt=2 / b_bias=0 / direct=3 / wpredb=1 / wpredp=2 / keyint=250 / keyint_min=25 / scenecut=40 / intra_refresh=0 / rc=2pass / mbtree=0 / bitrate=6850 / ratetol=1.0 / qcomp=0.60 / qpmin=9 / qpmax=28 / qpstep=4 / cplxblur=20.0 / qblur=0.5 / ip_ratio=1.40 / pb_ratio=1.30 / aq=1:1.00 / zones=0,2056,psy-rd=0.80:0
Language                        : Japanese

Audio #1
ID                              : 1
Format                          : AC-3
Format/Info                      : Audio Coding 3
Mode extension                  : CM (complete main)
Muxing mode                      : Header stripping
Codec ID                        : A_AC3
Duration                        : 24mn 11s
Bit rate mode                    : Constant
Bit rate                        : 224 Kbps
Channel(s)                      : 2 channels
Channel positions                : Front: L R
Sampling rate                    : 48.0 KHz
Bit depth                        : 16 bits
Compression mode                : Lossy
Stream size                      : 38.8 MiB (2%)
Title                            : AC3 2.0 (Exiled-Destiny)
Language                        : English

Audio #2
ID                              : 8
Format                          : FLAC
Format/Info                      : Free Lossless Audio Codec
Codec ID                        : A_FLAC
Duration                        : 24mn 11s
Bit rate mode                    : Variable
Channel(s)                      : 6 channels
Channel positions                : Front: L C R, Side: L R, LFE
Sampling rate                    : 48.0 KHz
Bit depth                        : 16 bits
Writing library                  : libFLAC 1.2.1 (UTC 2007-09-17)
Language                        : Japanese

Audio #3
ID                              : 9
Format                          : DTS
Format/Info                      : Digital Theater Systems
Format profile                  : MA / Core
Muxing mode                      : Header stripping
Codec ID                        : A_DTS
Duration                        : 24mn 11s
Bit rate mode                    : Variable
Bit rate                        : 2 047 Kbps / 1 510 Kbps
Channel(s)                      : 6 channels
Channel positions                : Front: L C R, Side: L R, LFE
Sampling rate                    : 48.0 KHz
Bit depth                        : 16 bits
Compression mode                : Lossless / Lossy
Language                        : Japanese

Text #1
ID                              : 2
Format                          : ASS
Codec ID                        : S_TEXT/ASS
Codec ID/Info                    : Advanced Sub Station Alpha
Compression mode                : Lossless
Title                            : Dialogue (Doki)
Language                        : Japanese

Text #2
ID                              : 3
Format                          : ASS
Codec ID                        : S_TEXT/ASS
Codec ID/Info                    : Advanced Sub Station Alpha
Compression mode                : Lossless
Language                        : Japanese

Text #3
ID                              : 4
Format                          : UTF-8
Codec ID                        : S_TEXT/UTF8
Codec ID/Info                    : UTF-8 Plain Text
Language                        : English

Text #4
ID                              : 5
Format                          : ASS
Codec ID                        : S_TEXT/ASS
Codec ID/Info                    : Advanced Sub Station Alpha
Compression mode                : Lossless
Title                            : chs
Language                        : Chinese

Text #5
ID                              : 6
Format                          : ASS
Codec ID                        : S_TEXT/ASS
Codec ID/Info                    : Advanced Sub Station Alpha
Compression mode                : Lossless
Title                            : cht
Language                        : Chinese

Menu
00:00:00.000                    : en:Prologue
00:02:01.037                    : en:OP
00:03:31.419                    : en:Part A
00:11:45.329                    : en:Part B
00:22:09.828                    : en:ED
00:23:39.835                    : en:Preview
ANK-RAWS目需要购入BD数量巨大,如果以下BD有你打算做BDRIP或者做CSM的,希望能给予一点捐助,毕竟我们能够用自购补完的BD也是极为有限的。
(以下会随放流情况随时更改)
http://keyfc.net/bbs/showtopic-51138.aspx
http://u2.dmhy.org/forums.php?action=viewtopic&forumid=19&topicid=6209
TOP

沒有,這些不好找又沒片源
還是找panagion,Celestin這兩位去要吧
提取音軌.....果然最後問題會變這樣
看看panagion,Celestin要不要幫你 (汗)
水羊不可一日無牡丹!!!
你今天膜拜牡丹神了沒??
TOP

有FLAC的话 其实DTS完全没有必要了吧
果断收原盘吧 免除一切烦恼 不用考虑洗那一版RIP......
TOP

回复 4# 就烦起名字 的帖子

原盘收不起,自己要收很多英文配音的动漫,还要收小圆的BDMV,没有那麽多空间。
ANK-RAWS目需要购入BD数量巨大,如果以下BD有你打算做BDRIP或者做CSM的,希望能给予一点捐助,毕竟我们能够用自购补完的BD也是极为有限的。
(以下会随放流情况随时更改)
http://keyfc.net/bbs/showtopic-51138.aspx
http://u2.dmhy.org/forums.php?action=viewtopic&forumid=19&topicid=6209
TOP

一,BD還沒有收
二,BDMV還沒有收
三,FTP吃流量115上傳無力
樓主如果這麼執著于英文音軌的話就請自行購買吧。請支持正版。

以上。
1

评分次数

    TOP

    回复 6# panagion 的帖子

    我英文音轨倒还好,基本上都是DVD原盘的AC3,我是自己封装的片子发不了,焦急而已。
    1

    评分次数

      ANK-RAWS目需要购入BD数量巨大,如果以下BD有你打算做BDRIP或者做CSM的,希望能给予一点捐助,毕竟我们能够用自购补完的BD也是极为有限的。
      (以下会随放流情况随时更改)
      http://keyfc.net/bbs/showtopic-51138.aspx
      http://u2.dmhy.org/forums.php?action=viewtopic&forumid=19&topicid=6209
      TOP